Quick Licks Up Tempo Blues Shuffle Am by Billy Gibbons TUTORIAL

Quick Licks Up Tempo Blues Shuffle Am by Billy Gibbons

 TUTORIAL

Learn guitar licks in the style of Billy Gibbons, whose killer blues-rock riffs and solos made him one of the most acclaimed guitarists of our time! Also includes a guitar jam track. Guitar lessons by Danny Gill. Each Quick Licks DVD includes an arsenal of licks in the style of your chosen artist to add to your repertoire, plus backing tracks to practice your licks and techniques.

Learn killer licks in the style of your favorite players and jam along with our superb guitar jam tracks. Each Quick Licks DVD includes an arsenal of licks in the style of your chosen artist to add to your repertoire, plus backing tracks to practice your new-found techniques! Learn up tempo blues shuffle guitar licks in the style of Billy Gibbons, whose killer blues-rock riffs and solos made him one of the most acclaimed guitarists of our time! Also includes a guitar jam track. Lessons by Danny Gill.

DVD5 | VOB | MPEG2 3919kbps | English | 720×576 | 25fps | 2h 12mins | AC3 stereo 192kbps | 3.5 GB
Genre: Video Training

Vote, and then, in comments leave a review, if you want or you can spend a few minutes ... .. go to expression ... get more data and information, releases, in the following reference links

#Samples #Audio #Production #Beats #Sounds #ProAudioz

Mediainfo:

Format : MPEG-PS
File size : 310 MiB
Duration : 10mn 7s
Overall bit rate : 4 281 Kbps
Video #224
ID : 224 (0xE0)
Format : MPEG Video
Format version : Version 2
Format profile : [email protected]
Format settings, Matrix : Default
Duration : 10mn 7s
Bit rate mode : Variable
Bit rate : 3 919 Kbps
Nominal bit rate : 7 000 Kbps
Width : 720 pixels
Height : 576 pixels
Display aspect ratio : 16:9
Frame rate : 25.000 fps
Standard : PAL
Colorimetry : 4:2:0
Scan type : Interlaced
Scan order : Bottom Field First
Bits/(Pixel*Frame) : 0.378
Stream size : 284 MiB (92%)
Audio #128
ID : 128 (0x80)
Format : AC-3
Format/Info : Audio Coding 3
Duration : 10mn 7s
Bit rate mode : Constant
Bit rate : 192 Kbps
Channel(s) : 2 channels
Channel positions : L R
Sampling rate : 48.0 KHz
Stream size : 13.9 MiB (4%)
- MORE INFO- http://q.gs/5l3Zv -

BEST PREMIUM FOR THE MOMENT

-- Uploaded.net ------ Rapidgator.net ------ Uploadgig.com --

▼▼▼▼▼▼▼▼▼ GO TO PASTECLIK ▼▼▼▼▼▼▼▼▼

DOWNLOAD: Quick Licks Up Tempo Blues Shuffle Am by Billy Gibbons TUTORIAL- GO TO SOURCE…

- http://pasteclik.org/20517/Quick-Licks-Up-Tempo-Blues-Shuffle-Am-by-Billy-Gibbons-TUTORIAL.html -

|

Deja un comentario

Tu dirección de correo electrónico no será publicada. Los campos obligatorios están marcados con *